Zane Grey - America's Pastime

Torrent Details

Zane Grey - America's Pastime

NAME
Zane Grey - America's Pastime.torrent
CATEGORY
Audiobooks
INFOHASH
ea173dcbaaa17c8e7521e6e054dba3f3b58676ef
SIZE
44 MB in 2 files
ADDED
Uploaded on 23-01-2015 by our crawler pet called "Spidey".
SWARM
0 seeders & 0 peers
RATING
No votes yet.

Please login to vote for this torrent.


Description

Written by Zane Grey
Read by James Mio
Format: MP3
Bitrate: 96 Kbps Baseball - the crack of the bat, the dry leathery smack of the ball in a fielder's glove, the shouts of the hot dog vendors ringing over the roar of the crowd nothing brings Summer to the life more than a day at the ballpark. The wonderful stones collected here recall those thrilling games of yesteryear, when the bases were loaded, the count was full, and one run would win the game. Stories performed by James Mio. 1) The Red-Headed Outfield - A hilarious story of three unique outfielders, one crazy, one cranky, and one able to move like the wind. Their potential to win ball games is phenomenal, if only their coach could get control of them. Runtime - 35:57 2) Old Well Well - The touching story of a legendary baseball fan, known in ballparks throught the league, who has one last dying wish - to see his nephew, the rising star outfielder play in one game. Runtime 24:40 Zane Grey - Old Well Well
Format : MPEG Audio
File size : 18.5 MiB
Duration : 26mn 45s
Overall bit rate mode : Constant
Overall bit rate : 96.0 Kbps
Album : America's Pastime
Track name : Old Well Well
Track name/Position : 2
Performer : Zane Gray
Genre : Audio Book
Recorded date : 1910
Cover : Yes
Cover MIME : image/jpg
MusicMatch_TrackArtist : Baseball Audio
Format : MPEG Audio
Format version : Version 1
Format profile : Layer 3
Mode : Joint stereo
Mode extension : Intensity Stereo + MS Stereo
Duration : 26mn 47s
Bit rate mode : Constant
Bit rate : 96.0 Kbps
Channel(s) : 2 channels
Sampling rate : 44.1 KHz
Compression mode : Lossy
Stream size : 18.4 MiB (99%) Zane Grey - The Red-Headed Outfield
Format : MPEG Audio
File size : 25.8 MiB
Duration : 37mn 13s
Overall bit rate mode : Constant
Overall bit rate : 96.0 Kbps
Album : America's Pastime
Track name : The Red-Headed Outfield
Track name/Position : 1
Performer : Zane Gray
Genre : Audio Book
Recorded date : 1910
Cover : Yes
Cover MIME : image/jpg
MusicMatch_TrackArtist : Baseball Audio
Format : MPEG Audio
Format version : Version 1
Format profile : Layer 3
Mode : Joint stereo
Mode extension : Intensity Stereo + MS Stereo
Duration : 37mn 16s
Bit rate mode : Constant
Bit rate : 96.0 Kbps
Channel(s) : 2 channels
Sampling rate : 44.1 KHz
Compression mode : Lossy
Stream size : 25.6 MiB (99%)

Discussion

Comments 0

Post Your Comment

Files in this torrent

FILENAMESIZE
Zane Grey - Old Well Well.mp318.5 MB
Zane Grey - The Red-Headed Outfield.mp325.8 MB

Alternative Torrents for 'Zane Grey America&#;s Pastime'.

There are no alternative torrents found.
SitemapAdorable Asian Babes Posing, Fucking, Eating Cum and more | Season 0 Episode 2 The Chronicles Of Cisco: Entry 0419 (2) | Ă„hnliche Wiederholung