LEER MAS | l'insulte | Petits coups montés


Westworld 2x06 Spazio Delle Fasi ITA ENG 1080p WEBMux H264-Morpheus

Torrent Details

Westworld 2x06 Spazio Delle Fasi ITA ENG 1080p WEBMux H264-Morpheus

NAME
Westworld 2x06 Spazio Delle Fasi ITA ENG 1080p WEBMux H264-Morpheus.torrent
CATEGORY
Television
INFOHASH
230c6e5ab0ee970e12d217190980dc00cf064d75
SIZE
5 GB in 1 file
ADDED
Uploaded on 05-06-2018 by our crawler pet called "Spidey".
SWARM
58 seeders & 193 peers
RATING
No votes yet.

Please login to vote for this torrent.


Description

GIUSEPPEiCV & LITTLELINX
HANNO IL PIACERE DI PRESENTARE

STAGIONE 2
WEBMUX 1080p
ITA - ENG Ac3



.: Dati Serie :.


Nazione : Stati Uniti d'America
Anno : 2018
Genere : drammatico, fantascienza, thriller, azione, avventura, western
Stagione 2
Episodi : 10
Durata : 55 min circa
Lingua : ITA - ENG
Interpreti e personaggi
• Evan Rachel Wood: Dolores Abernathy
• Thandie Newton: Maeve Millay
• Jeffrey Wright: Bernard Lowe / Arnold Weber
• James Marsden: Teddy Flood
• Ben Barnes: Logan
• Ingrid Bolsø Berdal: Armistice
• Clifton Collins Jr.: Lawrence / El Lazo
• Luke Hemsworth: Ashley Stubbs
• Sidse Babett Knudsen: Theresa Cullen
• Simon Quarterman: Lee Sizemore
• Rodrigo Santoro: Hector Escaton
• Angela Sarafyan: Clementine Pennyfeather
• Jimmi Simpson: William da giovane
• Tessa Thompson: Charlotte Hale

Set at the intersection of the near future and the reimagined past, explore a world in which every human appetite can be indulged without consequence.

Un mondo da "ripulire", una figlia da trovare, un mistero da risolvere, un ordine da ristabilire: torna Westworld , la serie cult targata HBO ispirata al film del 1973 di Michael Crichton "Il mondo dei robot". Dopo gli eventi del finale della S01, ritroviamo Dolores a capo di una vera e propria rivoluzione, Maeve alla disperata ricerca della figlia, e Bernard diviso tra la sua vera natura, il fatto di essere una delle creazioni di Ford, e la fedeltà alla Delos Destinations.

.: Screenshot :.



.: Caratteristiche Tecniche :.
[spoiler]
Westworld.2x01.Viaggio.Nella.Notte.ITA.ENG.1080p.WEBMux.H264-Morpheus.mkv
Format                                   : Matroska
Format version                           : Version 4 / Version 2
File size                                : 5.58 GiB
Duration                                 : 1h 10mn
Overall bit rate mode                    : Variable
Overall bit rate                         : 11.3 Mbps
Encoded date                             : UTC 2018-04-30 21:19:39
Writing application                      : mkvmerge v7.6.0 ('Garden of Dreams') 64bit built on Feb  8 2015 15:12:28
Writing library                          : libebml v1.3.1 + libmatroska v1.4.2
DURATION                                 : 01:10:35.328000000
NUMBER_OF_FRAMES                         : 132354
NUMBER_OF_BYTES                          : 203295744
_STATISTICS_WRITING_APP                  : mkvmerge v7.6.0 ('Garden of Dreams') 64bit built on Feb  8 2015 15:12:28
_STATISTICS_WRITING_DATE_UTC             : 2018-04-30 21:19:39
_STATISTICS_TAGS                         : BPS DURATION NUMBER_OF_FRAMES NUMBER_OF_BYTES

Video
ID                                       : 1
Format                                   : AVC
Format/Info                              : Advanced Video Codec
Format profile                           : [email protected]
Format settings, CABAC                   : Yes
Format settings, ReFrames                : 4 frames
Codec ID                                 : V_MPEG4/ISO/AVC
Duration                                 : 1h 10mn
Bit rate mode                            : Variable
Bit rate                                 : 10.5 Mbps
Maximum bit rate                         : 15.0 Mbps
Width                                    : 1 920 pixels
Height                                   : 1 080 pixels
Display aspect ratio                     : 16:9
Frame rate                               : 25.000 fps
Original frame rate                      : 23.976 fps
Color space                              : YUV
Chroma subsampling                       : 4:2:0
Bit depth                                : 8 bits
Scan type                                : Progressive
Bits/(Pixel*Frame)                       : 0.203
Stream size                              : 5.19 GiB (93%)
Language                                 : English
Default                                  : Yes
Forced                                   : No
DURATION                                 : 01:10:35.320000000
NUMBER_OF_FRAMES                         : 105883
NUMBER_OF_BYTES                          : 5689286887
_STATISTICS_WRITING_APP                  : mkvmerge v7.6.0 ('Garden of Dreams') 64bit built on Feb  8 2015 15:12:28
_STATISTICS_WRITING_DATE_UTC             : 2018-04-30 21:19:39
_STATISTICS_TAGS                         : BPS DURATION NUMBER_OF_FRAMES NUMBER_OF_BYTES
Color primaries                          : BT.709-5, BT.1361, IEC 61966-2-4, SMPTE RP177
Transfer characteristics                 : BT.709-5, BT.1361
Matrix coefficients                      : BT.709-5, BT.1361, IEC 61966-2-4 709, SMPTE RP177

Audio #1
ID                                       : 2
Format                                   : AC-3
Format/Info                              : Audio Coding 3
Mode extension                           : CM (complete main)
Codec ID                                 : A_AC3
Duration                                 : 1h 10mn
Bit rate mode                            : Constant
Bit rate                                 : 192 Kbps
Channel(s)                               : 2 channels
Channel positions                        : Front: L R
Sampling rate                            : 48.0 KHz
Bit depth                                : 16 bits
Compression mode                         : Lossy
Stream size                              : 96.9 MiB (2%)
Title                                    : ITA
Language                                 : Italian
Default                                  : Yes
Forced                                   : Yes

Audio #2
ID                                       : 3
Format                                   : AC-3
Format/Info                              : Audio Coding 3
Mode extension                           : CM (complete main)
Codec ID                                 : A_AC3
Duration                                 : 1h 10mn
Bit rate mode                            : Constant
Bit rate                                 : 384 Kbps
Channel(s)                               : 6 channels
Channel positions                        : Front: L C R, Side: L R, LFE
Sampling rate                            : 48.0 KHz
Bit depth                                : 16 bits
Compression mode                         : Lossy
Stream size                              : 194 MiB (3%)
Title                                    : ENG
Language                                 : English
Default                                  : No
Forced                                   : No

Text #1
ID                                       : 4
Format                                   : UTF-8
Codec ID                                 : S_TEXT/UTF8
Codec ID/Info                            : UTF-8 Plain Text
Title                                    : ITA - Forced
Language                                 : Italian
Default                                  : Yes
Forced                                   : Yes

Text #2
ID                                       : 5
Format                                   : UTF-8
Codec ID                                 : S_TEXT/UTF8
Codec ID/Info                            : UTF-8 Plain Text
Language                                 : Italian
Default                                  : No
Forced                                   : No

Text #3
ID                                       : 6
Format                                   : UTF-8
Codec ID                                 : S_TEXT/UTF8
Codec ID/Info                            : UTF-8 Plain Text
Language                                 : English
Default                                  : No
Forced                                   : No

Text #4
ID                                       : 7
Format                                   : UTF-8
Codec ID                                 : S_TEXT/UTF8
Codec ID/Info                            : UTF-8 Plain Text
Title                                    : English (SDH)
Language                                 : English
Default                                  : No
Forced                                   : No

[/spoiler]

.: Ringraziamenti :.




RESTATE IN SEED ALTRIMENTI

 

Discussion

Comments 0

Post Your Comment

Files in this torrent

FILENAMESIZE
Westworld.2x06.Spazio.Delle.Fasi.ITA.ENG.1080p.WEBMux.H264-Morpheus.mkv5 GB

Alternative Torrents for 'Westworld Spazio Delle Fasi ENG WEBMux'.

There are no alternative torrents found.